osu file format v10

[General]
AudioFilename: Yellow Zebra - Tsuki no Ritsudou ~ Rhythm of The Moon ~.mp3
AudioLeadIn: 1000
PreviewTime: 48287
Countdown: 0
SampleSet: Soft
StackLeniency: 0.7
Mode: 1
LetterboxInBreaks: 0

[Editor]
DistanceSpacing: 1
BeatDivisor: 4
GridSize: 32

[Metadata]
Title:Tsuki no Ritsudou ~ Rhythm of the moon~
TitleUnicode:月の律動 ~ Rhythm of the moon~
Artist:Yellow Zebra
ArtistUnicode:Yellow Zebra
Creator:l1106188
Version:qoot8123's Taiko
Source:Touhou
Tags:DarknessAngel qoot8123 fujimiya yuki ucchi History Moon Eirin Yagokoro Kaguya Houraisan Imperishable Night Ran-T Yoshiha
BeatmapID:191276
BeatmapSetID:53928

[Difficulty]
HPDrainRate:5
CircleSize:5
OverallDifficulty:5
ApproachRate:5
SliderMultiplier:1.6
SliderTickRate:1

[Events]
//Background and Video events
0,0,"BG.jpg"
//Break Periods
//Storyboard Layer 0 (Background)
//Storyboard Layer 1 (Fail)
//Storyboard Layer 2 (Pass)
//Storyboard Layer 3 (Foreground)
//Storyboard Sound Samples
//Background Colour Transformations
3,100,163,162,255

[TimingPoints]
1056,410.958904109589,4,2,0,70,1,0
48727,-100,4,2,0,70,0,1
73384,-100,4,2,0,70,0,0
95576,402.684563758389,4,2,0,70,1,0
96603,410.958904109589,4,2,0,70,1,0
124548,-100,4,2,0,70,0,1
149205,410.958904109589,3,2,0,70,1,0
157886,410.958904109589,3,2,0,70,1,0
158966,410.958904109589,4,2,0,70,1,0
161020,410.958904109589,4,2,0,70,1,0
187321,-100,4,2,0,70,0,1
239924,-100,4,2,0,70,0,0


[Colours]
Combo1 : 0,0,255
Combo2 : 255,0,0

[HitObjects]
256,192,1056,5,8,0:0:0
256,192,1261,1,0,0:0:0
256,192,1466,1,0,0:0:0
256,192,1672,5,8,0:0:0
256,192,1877,1,8,0:0:0
256,192,2083,5,0,0:0:0
256,192,2288,1,0,0:0:0
256,192,2494,5,8,0:0:0
256,192,2905,5,0,0:0:0
256,192,3110,5,8,0:0:0
256,192,3213,5,0,0:0:0
256,192,3316,1,0,0:0:0
256,192,3521,5,10,0:0:0
256,192,3727,1,8,0:0:0
256,192,3932,5,0,0:0:0
256,192,4138,5,12,0:0:0
256,192,4343,12,0,7220,0:0:0
256,192,7631,5,0,0:0:0
256,192,8042,5,8,0:0:0
256,192,8247,5,0,0:0:0
256,192,8453,5,8,0:0:0
256,192,8658,1,8,0:0:0
256,192,8864,5,0,0:0:0
256,192,9275,5,8,0:0:0
256,192,9686,1,8,0:0:0
256,192,9891,5,0,0:0:0
256,192,10302,1,0,0:0:0
256,192,10713,1,0,0:0:0
256,192,10919,5,8,0:0:0
256,192,11124,5,0,0:0:0
256,192,11329,5,8,0:0:0
256,192,11535,5,0,0:0:0
256,192,11638,1,0,0:0:0
256,192,11740,5,8,0:0:0
256,192,11946,5,0,0:0:0
256,192,12151,5,8,0:0:0
256,192,12357,5,0,0:0:0
256,192,13179,1,0,0:0:0
256,192,13384,5,8,0:0:0
256,192,13590,5,0,0:0:0
256,192,13795,5,8,0:0:0
256,192,14001,5,0,0:0:0
256,192,14103,1,0,0:0:0
256,192,14206,5,8,0:0:0
256,192,14412,5,0,0:0:0
256,192,14617,5,8,0:0:0
256,192,14823,5,0,0:0:0
256,192,15234,1,0,0:0:0
256,192,15439,5,8,0:0:0
256,192,15645,1,8,0:0:0
256,192,15850,5,0,0:0:0
256,192,16261,5,8,0:0:0
256,192,16466,5,0,0:0:0
256,192,16877,1,0,0:0:0
256,192,17083,5,8,0:0:0
256,192,17288,5,0,0:0:0
256,192,17494,5,8,0:0:0
256,192,17905,1,8,0:0:0
256,192,18110,5,0,0:0:0
256,192,18316,5,8,0:0:0
256,192,18521,5,0,0:0:0
256,192,18624,1,0,0:0:0
256,192,18727,5,8,0:0:0
256,192,18932,1,8,0:0:0
256,256,19138,2,0,B|256:96|256:96|256:320|256:320|256:192,1,480
256,192,20782,5,4,0:0:0
256,192,21192,5,8,0:0:0
256,192,21603,5,0,0:0:0
256,192,21809,1,0,0:0:0
256,192,22014,5,8,0:0:0
256,192,22220,5,0,0:0:0
256,192,22425,5,8,0:0:0
256,192,22631,5,0,0:0:0
256,192,22734,1,0,0:0:0
256,192,22836,5,8,0:0:0
256,192,23042,1,8,0:0:0
256,192,23247,5,0,0:0:0
256,192,23453,5,8,0:0:0
256,192,23864,5,0,0:0:0
256,192,24069,5,8,0:0:0
256,192,24275,5,0,0:0:0
256,192,24377,1,0,0:0:0
256,192,24480,5,8,0:0:0
256,192,24686,5,0,0:0:0
256,192,24891,5,8,0:0:0
256,192,25302,1,8,0:0:0
256,192,25508,5,0,0:0:0
256,192,26329,1,0,0:0:0
256,192,26535,5,8,0:0:0
256,192,26740,5,0,0:0:0
256,192,27151,1,0,0:0:0
256,256,27357,2,0,P|256:96,2,160
256,192,28384,1,0,0:0:0
256,192,28590,5,8,0:0:0
256,192,28795,1,8,0:0:0
256,192,29001,5,0,0:0:0
256,192,29412,5,8,0:0:0
256,192,29617,5,0,0:0:0
256,192,30234,1,0,0:0:0
256,192,30439,1,0,0:0:0
256,192,30645,5,8,0:0:0
256,192,30850,1,8,0:0:0
256,192,31056,5,0,0:0:0
256,192,31261,1,0,0:0:0
256,192,31466,5,8,0:0:0
256,192,31569,1,8,0:0:0
256,192,31672,5,0,0:0:0
256,192,31877,1,0,0:0:0
256,192,32083,5,8,0:0:0
256,256,32288,2,0,B|256:32|256:32|256:288,1,480
256,192,33932,5,4,0:0:0
256,192,34343,1,0,0:0:0
256,192,34549,1,0,0:0:0
256,192,34754,5,8,0:0:0
256,192,34960,5,0,0:0:0
256,192,35165,5,8,0:0:0
256,192,35576,1,8,0:0:0
256,192,35782,5,0,0:0:0
256,192,35987,1,0,0:0:0
256,192,36192,5,8,0:0:0
256,192,36603,5,0,0:0:0
256,192,36809,5,8,0:0:0
256,192,37220,5,0,0:0:0
256,192,37631,1,0,0:0:0
256,192,37836,1,0,0:0:0
256,192,37939,1,0,0:0:0
256,192,38042,5,8,0:0:0
256,192,38247,1,8,0:0:0
256,192,38453,5,0,0:0:0
256,192,38864,5,8,0:0:0
256,192,39275,5,0,0:0:0
256,192,39480,5,8,0:0:0
256,192,39891,5,0,0:0:0
256,192,40097,5,8,0:0:0
256,192,40199,5,0,0:0:0
256,192,40302,1,0,0:0:0
256,192,40508,1,4,0:0:0
256,192,40919,1,0,0:0:0
256,192,41124,1,0,0:0:0
256,192,41329,5,8,0:0:0
256,192,41535,1,8,0:0:0
256,192,41740,5,0,0:0:0
256,192,42151,5,8,0:0:0
256,192,42357,5,0,0:0:0
256,192,42460,1,0,0:0:0
256,192,42562,1,0,0:0:0
256,192,42768,1,0,0:0:0
256,192,43179,5,8,0:0:0
256,192,43590,1,8,0:0:0
256,192,43795,5,4,0:0:0
256,192,44001,1,0,0:0:0
256,192,44412,1,0,0:0:0
256,192,44617,5,8,0:0:0
256,192,44720,5,0,0:0:0
256,192,44823,1,0,0:0:0
256,192,44925,1,0,0:0:0
256,192,45028,5,8,0:0:0
256,192,45234,1,8,0:0:0
256,192,45439,5,4,0:0:0
256,192,45645,1,0,0:0:0
256,192,46055,5,8,0:0:0
256,192,46261,5,0,0:0:0
256,192,46466,1,0,0:0:0
256,192,46569,1,0,0:0:0
256,192,46672,5,8,0:0:0
256,192,47083,5,4,0:0:0
256,192,47357,1,4,0:0:0
256,192,47631,1,4,0:0:0
256,192,48727,1,4,0:0:0
256,192,49138,5,8,0:0:0
256,192,49343,5,0,0:0:0
256,192,49549,5,8,0:0:0
256,192,49651,5,0,0:0:0
256,192,49754,1,0,0:0:0
256,192,49960,5,8,0:0:0
256,192,50165,5,0,0:0:0
256,192,50371,5,8,0:0:0
256,192,50782,1,8,0:0:0
256,192,50987,5,0,0:0:0
256,192,51192,1,0,0:0:0
256,192,51295,1,0,0:0:0
256,192,51398,1,0,0:0:0
256,192,51603,5,8,0:0:0
256,192,51809,5,0,0:0:0
256,192,52014,1,4,0:0:0
256,192,52425,5,8,0:0:0
256,192,52631,5,0,0:0:0
256,192,52836,5,8,0:0:0
256,192,52939,1,8,0:0:0
256,192,53042,1,8,0:0:0
256,192,53247,1,8,0:0:0
256,192,53453,5,0,0:0:0
256,192,53658,5,8,0:0:0
256,192,54069,1,8,0:0:0
256,192,54275,5,0,0:0:0
256,192,54480,5,8,0:0:0
256,192,54891,5,0,0:0:0
256,192,54994,1,0,0:0:0
256,192,55097,1,0,0:0:0
256,192,55302,1,4,0:0:0
256,192,55713,5,8,0:0:0
256,192,55919,5,0,0:0:0
256,192,56124,5,8,0:0:0
256,192,56227,1,8,0:0:0
256,192,56329,1,8,0:0:0
256,192,56535,1,8,0:0:0
256,192,56740,5,0,0:0:0
256,192,56946,5,8,0:0:0
256,192,57049,5,0,0:0:0
256,192,57254,1,0,0:0:0
256,192,57357,5,8,0:0:0
256,192,57562,1,8,0:0:0
256,192,57768,5,0,0:0:0
256,192,58179,1,0,0:0:0
256,192,58384,1,0,0:0:0
256,192,58590,5,8,0:0:0
256,192,59001,5,0,0:0:0
256,192,59206,5,8,0:0:0
256,192,59412,5,0,0:0:0
256,192,59617,5,8,0:0:0
256,192,59720,1,8,0:0:0
256,192,59823,5,0,0:0:0
256,192,60028,1,0,0:0:0
256,192,60234,5,8,0:0:0
256,192,60336,5,0,0:0:0
256,192,60542,1,0,0:0:0
256,192,60645,5,8,0:0:0
256,192,60850,5,0,0:0:0
256,192,61055,5,8,0:0:0
256,192,61158,1,8,0:0:0
256,192,61261,5,0,0:0:0
256,192,61364,1,0,0:0:0
256,192,61466,5,8,0:0:0
256,192,61569,1,8,0:0:0
256,192,61672,5,0,0:0:0
256,192,61877,1,4,0:0:0
256,192,62288,1,0,0:0:0
256,192,62494,5,8,0:0:0
256,192,62699,1,8,0:0:0
256,192,62905,5,0,0:0:0
256,192,63008,1,0,0:0:0
256,192,63110,5,8,0:0:0
256,192,63316,5,0,0:0:0
256,192,63521,1,0,0:0:0
256,192,63932,5,8,0:0:0
256,192,64138,1,8,0:0:0
256,192,64240,1,8,0:0:0
256,192,64343,5,0,0:0:0
256,192,64754,5,8,0:0:0
256,192,64960,1,8,0:0:0
256,192,65165,5,4,0:0:0
256,192,65576,1,0,0:0:0
256,192,65782,5,8,0:0:0
256,192,65987,1,8,0:0:0
256,192,66090,1,8,0:0:0
256,192,66192,1,8,0:0:0
256,192,66398,5,0,0:0:0
256,192,66603,1,0,0:0:0
256,192,66809,5,8,0:0:0
256,192,67220,1,8,0:0:0
256,192,67425,5,0,0:0:0
256,192,67528,1,0,0:0:0
256,192,67631,5,8,0:0:0
256,192,68042,5,0,0:0:0
256,192,68247,5,8,0:0:0
256,192,68453,5,4,0:0:0
256,192,68864,5,8,0:0:0
256,192,69069,5,0,0:0:0
256,192,69275,1,0,0:0:0
256,192,69377,1,0,0:0:0
256,192,69480,1,0,0:0:0
256,192,69686,5,8,0:0:0
256,192,69891,5,0,0:0:0
256,192,70097,5,8,0:0:0
256,192,70199,1,8,0:0:0
256,192,70405,5,0,0:0:0
256,192,70508,5,8,0:0:0
256,192,70713,1,8,0:0:0
256,192,70919,5,0,0:0:0
256,192,71329,1,0,0:0:0
256,192,71535,5,8,0:0:0
256,192,71740,5,0,0:0:0
256,192,72151,1,0,0:0:0
256,192,72357,5,8,0:0:0
256,192,72562,1,8,0:0:0
256,192,72665,1,8,0:0:0
256,192,72871,5,0,0:0:0
256,192,72973,5,8,0:0:0
256,192,73076,1,8,0:0:0
256,192,73179,5,0,0:0:0
256,192,73384,1,4,0:0:0
256,192,74001,1,0,0:0:0
256,192,74206,5,8,0:0:0
256,192,74617,1,8,0:0:0
256,192,74823,5,0,0:0:0
256,192,75439,5,8,0:0:0
256,192,75645,5,0,0:0:0
256,192,75850,5,8,0:0:0
256,192,76261,5,0,0:0:0
256,192,76672,5,8,0:0:0
256,192,76877,1,8,0:0:0
256,192,77083,1,8,0:0:0
256,192,77288,5,0,0:0:0
256,192,77699,5,8,0:0:0
256,192,77905,1,8,0:0:0
256,192,78110,12,0,81603,0:0:0
256,192,82014,5,0,0:0:0
256,192,82425,5,8,0:0:0
256,192,82836,5,0,0:0:0
256,192,83247,1,0,0:0:0
256,192,83864,1,0,0:0:0
256,192,84275,1,0,0:0:0
256,192,84686,1,0,0:0:0
256,192,84891,5,8,0:0:0
256,192,85302,1,8,0:0:0
256,192,85713,1,8,0:0:0
256,192,86124,1,8,0:0:0
256,192,86329,5,0,0:0:0
256,192,86740,1,0,0:0:0
256,192,87151,1,0,0:0:0
256,192,87357,5,8,0:0:0
256,192,87562,5,0,0:0:0
256,192,87973,1,0,0:0:0
256,192,88179,5,8,0:0:0
256,192,88590,5,0,0:0:0
256,192,89206,5,8,0:0:0
256,192,89412,5,0,0:0:0
256,192,89617,5,8,0:0:0
256,192,89823,1,8,0:0:0
256,192,90234,1,8,0:0:0
256,192,90439,5,0,0:0:0
256,192,90850,1,0,0:0:0
256,192,91055,1,0,0:0:0
256,192,91261,5,8,0:0:0
256,192,91466,1,8,0:0:0
256,192,92083,5,0,0:0:0
256,192,92288,5,8,0:0:0
256,192,92391,1,8,0:0:0
256,192,92494,5,0,0:0:0
256,192,92699,1,0,0:0:0
256,192,92905,5,8,0:0:0
256,256,93110,2,0,B|256:96|256:96|256:352|256:352|256:288,1,480
256,192,95576,1,8,0:0:0
256,192,95978,1,8,0:0:0
256,192,96180,5,0,0:0:0
256,192,96381,1,0,0:0:0
256,192,96603,1,4,0:0:0
256,192,97013,5,8,0:0:0
256,192,97219,5,0,0:0:0
256,192,97424,1,0,0:0:0
256,192,97835,5,8,0:0:0
256,192,98041,5,0,0:0:0
256,192,98246,5,8,0:0:0
256,192,98657,1,8,0:0:0
256,192,98863,5,0,0:0:0
256,192,99274,5,8,0:0:0
256,192,99685,5,0,0:0:0
256,192,99890,5,8,0:0:0
256,192,100301,1,8,0:0:0
256,192,100507,5,0,0:0:0
256,192,100712,5,8,0:0:0
256,192,101123,1,8,0:0:0
256,192,101329,5,0,0:0:0
256,192,101945,5,8,0:0:0
256,192,102150,5,0,0:0:0
256,192,102356,1,0,0:0:0
256,192,102561,1,0,0:0:0
256,192,102767,1,0,0:0:0
256,192,103178,1,4,0:0:0
256,192,103383,1,0,0:0:0
256,192,103589,5,8,0:0:0
256,192,103794,1,8,0:0:0
256,192,104000,5,0,0:0:0
256,192,104411,5,8,0:0:0
256,192,104616,5,0,0:0:0
256,192,104822,5,8,0:0:0
256,192,105027,1,8,0:0:0
256,192,105233,1,8,0:0:0
256,192,105438,5,0,0:0:0
256,192,105849,1,0,0:0:0
256,192,106055,1,0,0:0:0
256,192,106157,1,0,0:0:0
256,192,106260,5,8,0:0:0
256,192,106466,1,8,0:0:0
256,192,106876,1,8,0:0:0
256,192,107082,5,0,0:0:0
256,192,107287,5,8,0:0:0
256,192,107596,5,0,0:0:0
256,192,107904,1,0,0:0:0
256,192,108109,5,8,0:0:0
256,192,108315,5,0,0:0:0
256,192,108520,5,8,0:0:0
256,192,108726,5,0,0:0:0
256,192,108931,5,8,0:0:0
256,192,109137,1,8,0:0:0
256,192,109342,5,0,0:0:0
256,192,109445,1,0,0:0:0
256,192,109548,1,0,0:0:0
256,192,109753,1,4,0:0:0
256,192,110164,1,0,0:0:0
256,192,110370,1,0,0:0:0
256,192,110575,5,8,0:0:0
256,192,110781,1,8,0:0:0
256,192,110986,5,0,0:0:0
256,192,111397,5,8,0:0:0
256,192,111808,5,0,0:0:0
256,192,112013,5,8,0:0:0
256,192,112424,1,8,0:0:0
256,192,112630,5,0,0:0:0
256,192,113041,1,0,0:0:0
256,192,113452,1,0,0:0:0
256,192,113657,1,0,0:0:0
256,192,113863,5,8,0:0:0
256,192,114274,1,8,0:0:0
256,192,114479,5,0,0:0:0
256,192,114685,1,0,0:0:0
256,192,115096,1,0,0:0:0
256,192,115301,5,8,0:0:0
256,192,115712,5,0,0:0:0
256,192,115918,1,0,0:0:0
256,192,116329,1,4,0:0:0
256,192,116739,1,0,0:0:0
256,192,116945,1,0,0:0:0
256,192,117048,1,0,0:0:0
256,192,117150,5,8,0:0:0
256,192,117356,1,8,0:0:0
256,192,117561,5,0,0:0:0
256,192,117972,5,8,0:0:0
256,192,118383,5,0,0:0:0
256,192,118589,5,8,0:0:0
256,192,118794,5,0,0:0:0
256,192,119000,1,0,0:0:0
256,192,119103,1,0,0:0:0
256,192,119205,5,8,0:0:0
256,192,119308,1,8,0:0:0
256,192,119411,5,0,0:0:0
256,192,119616,1,4,0:0:0
256,192,119822,1,0,0:0:0
256,192,120233,1,0,0:0:0
256,192,120438,5,8,0:0:0
256,192,120541,1,8,0:0:0
256,192,120644,5,0,0:0:0
256,192,120746,1,0,0:0:0
256,192,120849,5,8,0:0:0
256,192,121055,1,8,0:0:0
256,192,121260,5,4,0:0:0
256,192,121466,1,0,0:0:0
256,192,121876,5,8,0:0:0
256,192,122082,1,8,0:0:0
256,192,122287,5,0,0:0:0
256,192,122390,1,0,0:0:0
256,192,122493,5,8,0:0:0
256,192,122904,5,4,0:0:0
256,192,123178,1,4,0:0:0
256,192,123452,1,4,0:0:0
256,192,123931,5,8,0:0:0
256,192,124034,1,8,0:0:0
256,192,124137,5,0,0:0:0
256,192,124239,1,0,0:0:0
256,192,124342,5,8,0:0:0
256,192,124548,5,4,0:0:0
256,192,124959,1,0,0:0:0
256,192,125164,5,8,0:0:0
256,192,125370,5,0,0:0:0
256,192,125472,1,0,0:0:0
256,192,125575,5,8,0:0:0
256,192,125781,5,0,0:0:0
256,192,125986,5,8,0:0:0
256,192,126192,5,0,0:0:0
256,192,126603,5,8,0:0:0
256,192,127013,5,0,0:0:0
256,192,127424,1,0,0:0:0
256,192,127630,5,8,0:0:0
256,192,127835,5,0,0:0:0
256,192,128246,1,0,0:0:0
256,192,128452,5,8,0:0:0
256,192,128657,5,0,0:0:0
256,192,128863,1,0,0:0:0
256,192,128966,1,0,0:0:0
256,192,129068,5,8,0:0:0
256,192,129274,5,0,0:0:0
256,192,129479,5,8,0:0:0
256,192,129890,1,8,0:0:0
256,192,130096,5,0,0:0:0
256,192,130301,1,0,0:0:0
256,192,130404,1,0,0:0:0
256,192,130507,1,0,0:0:0
256,192,130712,5,8,0:0:0
256,192,130918,5,0,0:0:0
256,192,131123,1,4,0:0:0
256,192,131534,5,8,0:0:0
256,192,131739,5,0,0:0:0
256,192,131945,1,0,0:0:0
256,192,132048,1,0,0:0:0
256,192,132150,1,0,0:0:0
256,192,132356,5,8,0:0:0
256,192,132561,5,0,0:0:0
256,192,132767,1,0,0:0:0
256,192,132870,1,0,0:0:0
256,192,132972,5,8,0:0:0
256,192,133178,5,0,0:0:0
256,192,133383,5,8,0:0:0
256,192,133589,5,0,0:0:0
256,192,134000,1,0,0:0:0
256,192,134205,1,0,0:0:0
256,192,134411,5,8,0:0:0
256,192,134822,5,0,0:0:0
256,192,135027,5,8,0:0:0
256,192,135233,5,0,0:0:0
256,192,135438,5,8,0:0:0
256,192,135541,1,8,0:0:0
256,192,135644,5,0,0:0:0
256,192,135849,1,0,0:0:0
256,192,136055,5,8,0:0:0
256,192,136157,5,0,0:0:0
256,192,136363,1,0,0:0:0
256,192,136466,5,8,0:0:0
256,192,136671,5,0,0:0:0
256,192,136876,5,8,0:0:0
256,192,136979,1,8,0:0:0
256,192,137082,5,0,0:0:0
256,192,137287,1,0,0:0:0
256,192,137493,5,8,0:0:0
256,192,137698,5,4,0:0:0
256,192,138109,1,0,0:0:0
256,192,138315,5,8,0:0:0
256,192,138520,5,0,0:0:0
256,192,138623,1,0,0:0:0
256,192,138726,1,0,0:0:0
256,192,138931,5,8,0:0:0
256,192,139137,1,8,0:0:0
256,192,139342,5,0,0:0:0
256,192,139753,5,8,0:0:0
256,192,140164,5,0,0:0:0
256,192,140575,1,0,0:0:0
256,192,140781,5,8,0:0:0
256,192,140986,1,12,0:0:0
256,192,141397,5,0,0:0:0
256,192,141603,5,8,0:0:0
256,192,141808,1,8,0:0:0
256,192,141911,1,8,0:0:0
256,192,142013,5,0,0:0:0
256,192,142219,1,0,0:0:0
256,192,142424,1,0,0:0:0
256,192,142630,5,8,0:0:0
256,192,143041,1,8,0:0:0
256,192,143246,5,0,0:0:0
256,192,143452,5,8,0:0:0
256,192,143863,5,0,0:0:0
256,192,144068,5,8,0:0:0
256,192,144274,1,12,0:0:0
256,192,144685,1,8,0:0:0
256,192,144890,5,0,0:0:0
256,192,145096,5,8,0:0:0
256,192,145301,5,0,0:0:0
256,192,145404,1,0,0:0:0
256,192,145507,5,8,0:0:0
256,192,145712,5,0,0:0:0
256,192,145918,1,0,0:0:0
256,192,146020,1,0,0:0:0
256,192,146226,5,8,0:0:0
256,192,146329,5,0,0:0:0
256,192,146534,5,8,0:0:0
256,192,146739,5,0,0:0:0
256,192,147150,1,0,0:0:0
256,192,147356,1,0,0:0:0
256,192,147561,5,8,0:0:0
256,192,147972,5,0,0:0:0
256,192,148178,5,8,0:0:0
256,192,148383,5,0,0:0:0
256,192,148486,5,8,0:0:0
256,192,148692,5,0,0:0:0
256,192,148794,5,8,0:0:0
256,192,148897,1,8,0:0:0
256,192,149000,5,0,0:0:0
256,192,149205,1,4,0:0:0
256,192,149615,1,0,0:0:0
256,192,149821,5,8,0:0:0
256,192,150026,5,0,0:0:0
256,192,150232,1,4,0:0:0
256,192,150643,1,0,0:0:0
256,192,150848,1,0,0:0:0
256,192,151054,5,8,0:0:0
256,192,151259,1,8,0:0:0
256,192,151465,5,0,0:0:0
256,192,151670,1,4,0:0:0
256,192,152081,1,0,0:0:0
256,192,152287,5,8,0:0:0
256,192,152492,1,8,0:0:0
256,192,152595,5,0,0:0:0
256,192,152698,1,0,0:0:0
256,192,152903,5,8,0:0:0
256,192,153006,1,8,0:0:0
256,192,153109,5,0,0:0:0
256,192,153211,1,0,0:0:0
256,192,153314,5,8,0:0:0
256,192,153520,1,8,0:0:0
256,192,153725,1,8,0:0:0
256,192,153828,5,0,0:0:0
256,192,153931,1,0,0:0:0
256,192,154136,1,4,0:0:0
256,192,154341,1,0,0:0:0
256,192,154752,5,8,0:0:0
256,192,154958,1,8,0:0:0
256,192,155061,5,0,0:0:0
256,192,155163,1,0,0:0:0
256,192,155369,1,0,0:0:0
256,192,155574,5,8,0:0:0
256,192,155677,1,8,0:0:0
256,192,155780,5,0,0:0:0
256,192,155985,5,8,0:0:0
256,192,156191,1,8,0:0:0
256,192,156294,5,0,0:0:0
256,192,156396,1,0,0:0:0
256,192,156602,1,4,0:0:0
256,192,156807,1,0,0:0:0
256,192,157218,5,8,0:0:0
256,192,157424,1,8,0:0:0
256,192,157629,5,0,0:0:0
256,192,157886,5,12,0:0:0
256,192,158159,5,4,0:0:0
256,192,158433,1,4,0:0:0
256,192,158707,5,12,0:0:0
256,192,158966,5,4,0:0:0
256,192,159171,1,4,0:0:0
256,192,160404,1,0,0:0:0
256,192,160609,5,8,0:0:0
256,192,160712,1,8,0:0:0
256,192,160815,1,8,0:0:0
256,192,160917,1,8,0:0:0
256,192,161020,5,0,0:0:0
256,192,161430,5,8,0:0:0
256,192,161636,5,0,0:0:0
256,192,161841,5,8,0:0:0
256,192,162047,5,0,0:0:0
256,192,162252,1,0,0:0:0
256,192,162458,5,8,0:0:0
256,192,162663,1,8,0:0:0
256,192,163280,5,0,0:0:0
256,192,163485,5,8,0:0:0
256,192,164307,5,0,0:0:0
256,192,164718,5,8,0:0:0
256,192,164924,5,0,0:0:0
256,192,165335,1,0,0:0:0
256,192,165540,5,8,0:0:0
256,192,165746,1,8,0:0:0
256,192,166156,1,8,0:0:0
256,192,166362,1,8,0:0:0
256,192,166567,5,0,0:0:0
256,192,166773,1,0,0:0:0
256,192,166978,5,8,0:0:0
256,192,167184,5,0,0:0:0
256,192,167595,1,0,0:0:0
256,192,168006,5,8,0:0:0
256,192,168417,1,8,0:0:0
256,192,168622,1,8,0:0:0
256,192,168725,1,8,0:0:0
256,192,168828,5,0,0:0:0
256,192,169033,1,0,0:0:0
256,192,169239,5,8,0:0:0
256,192,169855,1,8,0:0:0
256,192,170061,1,8,0:0:0
256,192,170472,5,0,0:0:0
256,192,170677,1,0,0:0:0
256,192,170883,1,0,0:0:0
256,192,173759,5,8,0:0:0
256,192,174170,5,4,0:0:0
256,192,174581,5,8,0:0:0
256,192,174992,1,8,0:0:0
256,192,175198,5,0,0:0:0
256,192,175300,1,0,0:0:0
256,192,175403,1,0,0:0:0
256,192,175609,5,8,0:0:0
256,192,175814,5,0,0:0:0
256,192,176020,5,8,0:0:0
256,192,176122,1,8,0:0:0
256,192,176225,1,8,0:0:0
256,192,176430,5,0,0:0:0
256,192,176636,5,8,0:0:0
256,192,177047,5,0,0:0:0
256,192,177252,5,8,0:0:0
256,192,177458,5,0,0:0:0
256,192,177869,5,8,0:0:0
256,192,178074,5,0,0:0:0
256,192,178280,5,8,0:0:0
256,192,178485,1,8,0:0:0
256,192,178588,1,8,0:0:0
256,192,178691,5,0,0:0:0
256,192,178896,5,8,0:0:0
256,192,179307,1,8,0:0:0
256,192,179513,5,0,0:0:0
256,192,179718,5,8,0:0:0
256,192,179924,5,0,0:0:0
256,192,180026,1,0,0:0:0
256,192,180129,5,8,0:0:0
256,192,180335,5,0,0:0:0
256,192,180746,1,4,0:0:0
256,192,181156,5,8,0:0:0
256,192,181362,5,0,0:0:0
256,192,181567,5,8,0:0:0
256,192,181773,5,0,0:0:0
256,192,181876,1,0,0:0:0
256,192,181978,1,0,0:0:0
256,192,182184,1,0,0:0:0
256,192,182389,5,8,0:0:0
256,192,182800,5,0,0:0:0
256,192,183006,5,8,0:0:0
256,192,183211,1,8,0:0:0
256,192,183622,1,8,0:0:0
256,192,183828,1,8,0:0:0
256,192,184033,1,8,0:0:0
256,192,184444,5,0,0:0:0
256,192,184855,5,8,0:0:0
256,192,185266,5,0,0:0:0
256,192,185472,1,0,0:0:0
256,192,185677,1,4,0:0:0
256,192,185883,1,0,0:0:0
256,192,186088,1,0,0:0:0
256,192,186293,1,0,0:0:0
256,192,186499,1,0,0:0:0
256,192,186602,1,0,0:0:0
256,192,186704,5,8,0:0:0
256,192,186807,1,8,0:0:0
256,192,186910,5,0,0:0:0
256,192,187013,1,0,0:0:0
256,192,187115,1,0,0:0:0
256,192,187321,1,4,0:0:0
256,192,187526,1,0,0:0:0
256,192,187732,5,12,0:0:0
256,192,187937,5,0,0:0:0
256,192,188143,5,12,0:0:0
256,192,188348,5,0,0:0:0
256,192,188451,1,0,0:0:0
256,192,188554,5,8,0:0:0
256,192,188759,5,0,0:0:0
256,192,188965,5,12,0:0:0
256,192,189170,5,0,0:0:0
256,192,189376,1,0,0:0:0
256,192,189581,5,8,0:0:0
256,192,189787,1,8,0:0:0
256,192,190198,1,8,0:0:0
256,192,190403,5,0,0:0:0
256,192,190609,1,4,0:0:0
256,192,190814,1,0,0:0:0
256,192,190917,1,0,0:0:0
256,192,191019,5,8,0:0:0
256,192,191225,5,0,0:0:0
256,192,191430,5,8,0:0:0
256,192,191636,5,0,0:0:0
256,192,191841,1,0,0:0:0
256,192,191944,1,0,0:0:0
256,192,192047,5,8,0:0:0
256,192,192458,1,8,0:0:0
256,192,192663,5,0,0:0:0
256,192,192869,1,0,0:0:0
256,192,193074,1,0,0:0:0
256,192,193177,1,0,0:0:0
256,192,193280,5,8,0:0:0
256,192,193485,5,0,0:0:0
256,192,193896,1,4,0:0:0
256,192,194102,1,0,0:0:0
256,192,194307,5,12,0:0:0
256,192,194513,5,0,0:0:0
256,192,194718,5,12,0:0:0
256,192,194924,5,0,0:0:0
256,192,195026,1,0,0:0:0
256,192,195129,1,0,0:0:0
256,192,195335,5,8,0:0:0
256,192,195540,1,12,0:0:0
256,192,195746,1,8,0:0:0
256,192,195848,1,8,0:0:0
256,192,195951,1,8,0:0:0
256,192,196156,5,0,0:0:0
256,192,196362,5,8,0:0:0
256,192,196773,5,0,0:0:0
256,192,196978,5,8,0:0:0
256,192,197184,5,0,0:0:0
256,192,197389,1,0,0:0:0
256,192,197595,5,8,0:0:0
256,192,197800,5,0,0:0:0
256,192,197903,5,8,0:0:0
256,192,198006,5,0,0:0:0
256,192,198109,1,0,0:0:0
256,192,198211,5,8,0:0:0
256,192,198417,1,8,0:0:0
256,192,198828,1,8,0:0:0
256,192,198930,5,0,0:0:0
256,192,199033,1,0,0:0:0
256,192,199239,5,8,0:0:0
256,192,199341,5,0,0:0:0
256,192,199444,1,0,0:0:0
256,192,199650,5,8,0:0:0
256,192,199855,1,8,0:0:0
256,192,199958,1,8,0:0:0
256,192,200061,5,0,0:0:0
256,192,200163,5,8,0:0:0
256,192,200266,1,8,0:0:0
256,192,200472,5,4,0:0:0
256,192,200677,1,0,0:0:0
256,192,200883,5,12,0:0:0
256,192,201088,5,0,0:0:0
256,192,201293,5,12,0:0:0
256,192,201499,1,8,0:0:0
256,192,201602,1,8,0:0:0
256,192,201704,5,0,0:0:0
256,192,201910,5,8,0:0:0
256,192,202115,5,0,0:0:0
256,192,202526,5,8,0:0:0
256,192,202732,5,0,0:0:0
256,192,202835,1,0,0:0:0
256,192,202937,5,8,0:0:0
256,192,203143,5,0,0:0:0
256,192,203348,5,8,0:0:0
256,192,203759,5,4,0:0:0
256,192,203965,1,0,0:0:0
256,192,204067,1,0,0:0:0
256,192,204170,5,8,0:0:0
256,192,204376,5,0,0:0:0
256,192,204787,1,0,0:0:0
256,192,204992,5,8,0:0:0
256,192,205198,5,0,0:0:0
256,192,205300,1,0,0:0:0
256,192,205403,5,8,0:0:0
256,192,205609,5,0,0:0:0
256,192,205711,1,0,0:0:0
256,192,205814,5,8,0:0:0
256,192,206020,5,0,0:0:0
256,192,206225,1,0,0:0:0
256,192,206430,5,8,0:0:0
256,192,206636,5,0,0:0:0
256,192,207047,1,4,0:0:0
256,192,207458,5,12,0:0:0
256,192,207869,1,8,0:0:0
256,192,208074,5,0,0:0:0
256,192,208177,1,0,0:0:0
256,192,208280,5,8,0:0:0
256,192,208485,5,0,0:0:0
256,192,208691,5,8,0:0:0
256,192,209102,1,8,0:0:0
256,192,209307,5,0,0:0:0
256,192,209513,5,8,0:0:0
256,192,209718,5,0,0:0:0
256,192,209924,5,8,0:0:0
256,192,210335,1,12,0:0:0
256,192,210540,5,0,0:0:0
256,192,210643,1,0,0:0:0
256,192,210746,5,8,0:0:0
256,192,210951,5,0,0:0:0
256,192,211054,1,0,0:0:0
256,192,211156,5,8,0:0:0
256,192,211259,1,8,0:0:0
256,192,211362,5,0,0:0:0
256,192,211465,1,0,0:0:0
256,192,211567,5,8,0:0:0
256,192,211978,1,12,0:0:0
256,192,212389,1,8,0:0:0
256,192,212595,5,0,0:0:0
256,192,212800,5,8,0:0:0
256,192,212903,1,8,0:0:0
256,192,213006,1,8,0:0:0
256,192,213211,1,8,0:0:0
256,192,213314,5,0,0:0:0
256,192,213417,1,0,0:0:0
256,192,213622,1,4,0:0:0
256,192,214033,5,12,0:0:0
256,192,214444,1,8,0:0:0
256,192,214650,5,0,0:0:0
256,192,214752,1,0,0:0:0
256,192,214855,1,0,0:0:0
256,192,215061,5,8,0:0:0
256,192,215266,1,12,0:0:0
256,192,215472,5,0,0:0:0
256,192,215677,1,0,0:0:0
256,192,215780,1,0,0:0:0
256,192,215883,5,8,0:0:0
256,192,216088,1,8,0:0:0
256,192,216499,1,8,0:0:0
256,192,216704,5,0,0:0:0
256,192,216910,1,0,0:0:0
256,192,217115,1,0,0:0:0
256,192,217218,1,0,0:0:0
256,192,217321,5,8,0:0:0
256,192,217526,5,0,0:0:0
256,192,217937,5,8,0:0:0
256,192,218040,1,8,0:0:0
256,192,218143,5,0,0:0:0
256,192,218348,5,8,0:0:0
256,192,218554,5,0,0:0:0
256,192,218656,1,0,0:0:0
256,192,218759,5,8,0:0:0
256,192,218965,5,0,0:0:0
256,192,219067,1,0,0:0:0
256,192,219170,5,8,0:0:0
256,192,219376,5,0,0:0:0
256,192,219581,5,8,0:0:0
256,192,219787,5,0,0:0:0
256,192,220198,1,4,0:0:0
256,192,220609,5,12,0:0:0
256,192,221019,1,8,0:0:0
256,192,221225,1,8,0:0:0
256,192,221328,5,0,0:0:0
256,192,221430,1,0,0:0:0
256,192,221636,5,8,0:0:0
256,192,221841,1,12,0:0:0
256,192,222047,5,0,0:0:0
256,192,222150,1,0,0:0:0
256,192,222252,1,0,0:0:0
256,192,222458,1,0,0:0:0
256,192,222663,5,8,0:0:0
256,192,222869,5,0,0:0:0
256,192,223074,5,8,0:0:0
256,192,223280,5,0,0:0:0
256,192,223383,1,0,0:0:0
256,192,223485,5,8,0:0:0
256,192,223896,1,8,0:0:0
256,192,224102,5,0,0:0:0
256,192,224307,5,8,0:0:0
256,192,224410,5,0,0:0:0
256,192,224513,1,0,0:0:0
256,192,224615,1,0,0:0:0
256,192,224718,5,8,0:0:0
256,192,225129,1,8,0:0:0
256,192,225335,5,0,0:0:0
256,192,225437,1,0,0:0:0
256,192,225540,5,8,0:0:0
256,192,225746,5,0,0:0:0
256,192,225848,1,0,0:0:0
256,192,225951,5,8,0:0:0
256,192,226156,1,8,0:0:0
256,192,226259,1,8,0:0:0
256,192,226362,5,0,0:0:0
256,192,226465,1,0,0:0:0
256,192,226567,1,0,0:0:0
256,192,226773,1,4,0:0:0
256,192,227184,5,12,0:0:0
256,192,227595,1,8,0:0:0
256,192,227800,5,0,0:0:0
256,192,227903,1,0,0:0:0
256,192,228006,5,8,0:0:0
256,192,228211,5,0,0:0:0
256,192,228417,5,8,0:0:0
256,192,228622,5,0,0:0:0
256,192,228828,1,0,0:0:0
256,192,229033,5,8,0:0:0
256,192,229239,1,8,0:0:0
256,192,229650,1,8,0:0:0
256,192,229752,5,0,0:0:0
256,192,229855,1,0,0:0:0
256,192,230061,1,4,0:0:0
256,192,230266,1,0,0:0:0
256,192,230472,5,8,0:0:0
256,192,230677,5,0,0:0:0
256,192,231088,5,8,0:0:0
256,192,231293,5,0,0:0:0
256,192,231499,5,8,0:0:0
256,192,231704,1,8,0:0:0
256,192,231807,1,8,0:0:0
256,192,231910,1,8,0:0:0
256,192,232115,5,0,0:0:0
256,192,232321,5,8,0:0:0
256,192,232526,5,0,0:0:0
256,192,232732,5,8,0:0:0
256,192,232937,5,0,0:0:0
256,192,233348,1,4,0:0:0
256,192,233759,5,12,0:0:0
256,192,234170,1,8,0:0:0
256,192,234376,5,0,0:0:0
256,192,234478,1,0,0:0:0
256,192,234581,1,0,0:0:0
256,192,234787,5,8,0:0:0
256,192,234992,5,0,0:0:0
256,192,235198,5,8,0:0:0
256,192,235403,5,0,0:0:0
256,192,235506,1,0,0:0:0
256,192,235609,5,8,0:0:0
256,192,235814,1,8,0:0:0
256,192,236225,5,0,0:0:0
256,192,236430,1,0,0:0:0
256,192,236636,5,8,0:0:0
256,192,236841,5,0,0:0:0
256,192,237047,5,8,0:0:0
256,192,237252,5,0,0:0:0
256,192,237355,1,0,0:0:0
256,192,237458,5,8,0:0:0
256,192,237561,5,0,0:0:0
256,192,237663,1,0,0:0:0
256,192,237869,5,8,0:0:0
256,192,238280,1,12,0:0:0
256,192,238691,1,12,0:0:0
256,192,239102,1,12,0:0:0
256,192,239924,5,4,0:0:0
256,192,240335,5,12,0:0:0
256,192,240746,1,8,0:0:0
256,192,240951,5,0,0:0:0
256,192,241156,1,0,0:0:0
256,192,241362,5,8,0:0:0
256,192,241567,1,8,0:0:0
256,192,242184,1,8,0:0:0
256,192,242389,1,8,0:0:0
256,192,242800,1,8,0:0:0
256,192,243211,5,4,0:0:0
256,192,243622,5,8,0:0:0
256,192,243828,5,0,0:0:0
256,192,244239,1,0,0:0:0
256,192,244444,1,0,0:0:0
256,192,244650,5,8,0:0:0
256,192,245061,1,8,0:0:0
256,192,245266,1,8,0:0:0
256,192,245472,5,0,0:0:0
256,192,245677,1,0,0:0:0
256,192,245883,5,8,0:0:0
256,192,246088,5,0,0:0:0
256,192,246499,1,4,0:0:0
256,192,246910,5,12,0:0:0
256,192,247321,1,8,0:0:0
256,192,247526,5,0,0:0:0
256,192,247732,1,0,0:0:0
256,192,247937,5,8,0:0:0
256,256,248143,2,0,B|256:96|256:96|256:320|256:320|256:192,1,480
256,192,249787,5,0,0:0:0
